Against all authorities - Against All Authority performing live at THE FEST 20 in Gainesville, Florida at Bo Didley Plaza.Filmed & edited by Christian Costellohttps://www.facebook.com...

 
Against all authoritiesAgainst all authorities - YouTube. AGAINST ALL AUTHORITY live at The FEST 20 [Partial Set] - Gainesville, FL. THE FEST is an independent multi-day, multiple-venue underground music festival held annually in Gainesville, Florida. In 2024, THE FEST celebrates 22 YEARS in Gainesville!

Respect for Authority. 13 Everyone must submit to governing authorities. For all authority comes from God, and those in positions of authority have been placed there by God. 2 So anyone who rebels against authority is rebelling against what God has instituted, and they will be punished. 3 For the authorities do not strike fear in people who are ...Alliance: Against ALL Authorities | Pilots: 513 | Member Corporations: 16 | Founded: 2007-02-01Goin' down and gonna drown and there's one thing I know. (Don't wanna be like you) Hate yourself and you hate what you've become. And I hate it too and I hate you and everyone. That tries to stand in my way because I won't succumb. (Don't wanna be like you) Give up your dreams and stand in line. (Stand in line)Respect for Authority. 13 Everyone must submit to governing authorities. For all authority comes from God, and those in positions of authority have been placed there by God. 2 So anyone who rebels against authority is rebelling against what God has instituted, and they will be punished. 3 For the authorities do not strike fear in people who are ...Sep 12, 2017 · Onyx ‎- Against All Authorities (2015)Tracklist:01. Strike Bac (feat. SickFlo) (0:00)02. Against All Authorities (3:47)03. Look Like a Criminal (feat. Merkul... 나무위키:대문 - 나무위키 Empty pools and punk rock shows After that nobody knows And the sun goes down and the streetlights glow Out of control and you've shivered my timbers I'm all fucked up, the moon's just a sliver Silence is golden but duct tape is silver Like the lining of the clouds that conceal the killers The streets aren't safe when the winds start blowing In ...Belarusian authorities say they have launched dozens of raids to target those suspected of “extremist” activities in new efforts by the political opposition to create …May 9, 2006 · See Full Discography. All Fall Down (1998) Destroy What Destroys You (1998) Exchange (1999) 24 Hour Roadside Resistance (2000) Live at the Fireside Bowl (2003) Against All Authority/Common Rider (2005) The Restoration of Chaos & Order (2006) Create your Linktree. Explore @againstallauthority's official socials, latest music, merch, tour dates and more. Everything they do, all in one place on Linktree.Feb 4, 2021 · Against ALL Authorities.: 16,213 ships destroyed and 8,340 ships lost. Against All Authority Lyrics. "Silence Is Golden But Duct Tape Is Silver". Me and Billy like to sleep all day-all day. On the floor is where we decay-decay. Mohawks in disarray. From Cutler Ridge to motherfuckin' Biscayne Bay. The Gangs tried to kill us, but we wouldn't take flight. Brass knuckles and rusty knives. Kept the wolves at bay.For in Him all things were created, things in heaven and on earth, visible and invisible, whether thrones or dominions or rulers or authorities. All things were created through Him and for Him. Colossians 2:10 And you have been made complete in Christ, who is the head over every ruler and authority.The reason Paul commands the Roman Christians to submit to the authorities is because civil authority is God's institution and as such will punish wrongdoers and praise those who do good (13:1-5). A. Paul commands the Roman Christians to submit to civil authority because God has appointed that authority (1-2a).May 9, 2006 · Out of control. And you've shivered my timbers. I'm all fucked up. The moon's just a sliver. Yeah, silence is golden. But duct tape is silver. Like the lining of the clouds. That conceal the killers. Against All Authorities by Snowgoons, released 05 May 2015 Includes unlimited streaming via the free Bandcamp app, plus high-quality download in MP3, FLAC and more.From the EP by Onyx - Against All Authorities!iTunes: https://itunes.apple.com/us/album/against-all-authorities-ep/id985850622CD at … Against ALL Authorities: 657,449 ships destroyed and 230,689 ships lost. Against All Authority Lyrics. "What The Fuck'd You Expect?" She didn't need him, she couldn't feed him. And his father gets drunk, and then he beats them. They're livin' in a run down trailer park. He slips out at night when it gets dark. Yeah, he's just gotta get outta there. He's gotta get away and he doesn't really care. Its slowly killin me, I gotta go. Cause I feel my blood pumpin like a stereo. Ive kept it bottled up inside, but now its gonna blow. What are you gonna do, when it comes to you? Its slowly killin ...AGAINST ALL AUTHORITY - 2000 - NOTHING NEW FOR TRASH LIKE YOU ===== 01 Just An Obstruction.mp3 02 That Way.mp3 03 In On Your Joke.mp3 04 Bakonin.mp3 05 Miami.mp3 06 Comin Down On You.mp3 07 Nothing To Lose.mp3 08 Haymarket Sqare.mp3 09 Sacco And Vanzetti.mp3 10 Alba.mp3 11 Threat.mp3 12 Hard …Against All Authority began the punk rock fight in 1992, when they decided to form a D.I.Y. band that would really live up to their ideals. Made up of vocalist/bassist Danny Lore, … Alliance: Against ALL Authorities | Pilots: 512 | Member Corporations: 16 | Founded: 2007-02-01 Searchresult for: Against ALL Authorities (Limit 200) Alliance: Against ALL Authorities <.-A-.> Member: 512: Alliance: Against ALL Authorities (closed) Alliance: Against ALL Authorities. <-A-> Member: 140: Most violent systems (3 hours) Ships / Pods 0.0 System; QY1E-N (Querious) 24 / 14: C3N-3S (Delve) 20 / 18: J-GAMP (Tribute)And we can't undo. The things you've done and the things you'll do. To the next one of us that steps out of line. Do you think I'm trying to undermine the. Authority we've given to you. Or did you ... Feel my hate, feel my resistance. And the system was brought to its knees. I won't be another content slave. That you oppress because I crave. For the annihilation of your existence. Feel my hate ... Submission to government authority applies to all governments, though this is not universal because there are occasional requirements at odds with God’s commands. View one is unlikely because Paul speaks broadly—“there is no authority except by God, and those that exist have been appointed by God” (Romans 13:1).May 9, 2006 · See Full Discography. All Fall Down (1998) Destroy What Destroys You (1998) Exchange (1999) 24 Hour Roadside Resistance (2000) Live at the Fireside Bowl (2003) Against All Authority/Common Rider (2005) The Restoration of Chaos & Order (2006) That's why I chose to live a fuckin' lifestyle of rebellion. It's so hard, it's so hard, so fucking hard to live this life. My gun is fuckin' loaded and I'm beginning to see the light. 'Cause it's ...The following tables outline the national quality rating and assessment process for evaluation of services against the National Quality Standards and the National Regulations. It is designed to be a cooperative process with opportunities for services to discuss how they are meeting the National Quality Standards and enhancing outcomes for children. The …He's got nothing to lose so he's always winning. He's suffocating, the pain can be excruciating. And liberating, it helps him forget the worlds he's hating. And now he's waiting, there won't be ...Against All Authority (often abbreviated -AAA-) is a DIY ska-punk band. They were founded in Miami, Florida in 1992, driven by willingness to promote their message -- "questioning our economic differences and promoting our human similarities", as stated by their official site. A strong engagement in political and social issues is clearly ...Split by Against All Authority, Common Rider. Find album reviews, track lists, credits, awards and more at AllMusic.Against All Authority. 1,813 likes · 290 talking about this. political punkska band from Miami, FLI did not make this music but you can support the people who did here https://itunes.apple.com/us/artist/against-all-authority/6834578 but this album you can...Never thought that I would get outta there. (Court 22) My father kicked me out when I shaved my hair. (Fuck you) Never fit in with the other kids. (Court 22) Singled out because of where I lived ...Filename C:\Albums\Against All Authority\24 Hour Roadside Resistance[2000]\02 - Dinkas When I Close My Eyes.wav Peak level 98.9 % Track quality 99.8 % Test CRC CAB567EB Copy CRC CAB567EB Accurately ripped (confidence 2) [035EAD2C] Copy OK Track 3 Filename C:\Albums\Against All Authority\24 Hour Roadside …Learn the definition of 'against all authority, except for my mom'. Check out the pronunciation, synonyms and grammar. Browse the use examples 'against all authority, except for my mom' in the great English corpus. Against All Authority Lyrics. "What The Fuck'd You Expect?" She didn't need him, she couldn't feed him. And his father gets drunk, and then he beats them. They're livin' in a run down trailer park. He slips out at night when it gets dark. Yeah, he's just gotta get outta there. He's gotta get away and he doesn't really care. Grove of AnaheimReferences [ edit] against All authority (also known as aAa) is one of the oldest multigaming organizations in France, having been founded in 2000.The following tables outline the national quality rating and assessment process for evaluation of services against the National Quality Standards and the National Regulations. It is designed to be a cooperative process with opportunities for services to discuss how they are meeting the National Quality Standards and enhancing outcomes for children. The …Its slowly killin me, I gotta go. Cause I feel my blood pumpin like a stereo. Ive kept it bottled up inside, but now its gonna blow. What are you gonna do, when it comes to you? Its slowly killin ... Ska Sucks Lyrics: Ska sucks / Ska revival isn't cool / You stupid fucks / I bet they're only in it / For the bucks / And if you don't believe me / You're a schmuck / But the trend will die down Alliance: Against ALL Authorities | Pilots: 513 | Member Corporations: 16 | Founded: 2007-02-01Drums Mack Proenza. Guitar, backing vocals Joe Koontz. Music by Against All Authority. Lyrics By Against All Authority. Produced by Against All Authority & Joe Williams (Producer) Recorded By ...Submission to Governing Authorities. 13 Let everyone be subject to the governing authorities, for there is no authority except that which God has established. The authorities that exist have been established by God. 2 Consequently, whoever rebels against the authority is rebelling against what God has instituted, and those who do so …AGAINST ALL AUTHORITY - 2000 - NOTHING NEW FOR TRASH LIKE YOU ===== 01 Just An Obstruction.mp3 02 That Way.mp3 03 In On Your Joke.mp3 04 Bakonin.mp3 05 Miami.mp3 06 Comin Down On You.mp3 07 Nothing To Lose.mp3 08 Haymarket Sqare.mp3 09 Sacco And Vanzetti.mp3 10 Alba.mp3 11 Threat.mp3 12 Hard …Committing The Truth Lyrics: Just keep your mouth shut / And don't you try to obstruct us / Your act of conscience protects everyone but now you've lost our trust / And now you're a target for usArticle 23 expands on the China-imposed national security law, targeting new offences like treason and espionage. Hong Kong has passed a tough security law which authorities …AGAINST (ALL) THE ODDS/AGAINST ALL ODDS definition: 1. If you do or achieve something against (all) the odds/against all odds, you do or achieve it…. Learn more.Against All Authority Lyrics "Alba" Black beans on the stove, Malta in my hand Tears in Alba's eyes as she dreams of a far away land "I've been stripped from my country, I've been spit on by my race" I said, "it'll be okay" as I wiped a tear from her faceFuckin' listen to me. Obey my laws worship my God. Cuz your just an obstruction. And your holding back production. It's a free land of opportunity. Where my people can prosper. So we'll take your ...Feb 4, 2021 · Against ALL Authorities.: 16,213 ships destroyed and 8,340 ships lost. Goin' down and gonna drown and there's one thing I know. (Don't wanna be like you) Hate yourself and you hate what you've become. And I hate it too and I hate you and everyone. That tries to stand in my way because I won't succumb. (Don't wanna be like you) Give up your dreams and stand in line. (Stand in line)Collecting Scars Lyrics. [Verse 1] Close your eyes and shut your mouth. Because it's all the same. And it won't change with you or without. They've got your number. And that's all that you are. To ...When did Against All Authority release “That Way”? Nothing New for Trash Like You. Against All Authority. 1. Just An Obstruction. 2. That Way. 3. In On Your Joke. 4. Bakunin. 5.I did not make this music but you can support the people who did here https://itunes.apple.com/us/artist/against-all-authority/6834578 but this album you can...Goin' down and gonna drown and there's one thing I know. (Don't wanna be like you) Hate yourself and you hate what you've become. And I hate it too and I hate you and everyone. That tries to stand in my way because I won't succumb. (Don't wanna be like you) Give up your dreams and stand in line. (Stand in line)Filename C:\Albums\Against All Authority\24 Hour Roadside Resistance[2000]\02 - Dinkas When I Close My Eyes.wav Peak level 98.9 % Track quality 99.8 % Test CRC CAB567EB Copy CRC CAB567EB Accurately ripped (confidence 2) [035EAD2C] Copy OK Track 3 Filename C:\Albums\Against All Authority\24 Hour Roadside …Backing Vocals, Trombone – Tim Farout *. Backing Vocals, Vocals [Extra Heys] – Raf Classic. Drums – Kris King. Lyrics By, Music By – Against All Authority ( tracks: 1 to 17, 19 to 22) Mixed By, Producer, Recorded By – Jeremy DuBois. Producer – Against All Authority. Saxophone – Tim Coates *. Trumpet – Joey Jukes. Against All Authority. 1,813 likes · 290 talking about this. political punkska band from Miami, FL. Get all the lyrics to songs on Against All Authority/Less Than Jake and join the Genius community of music scholars to learn the meaning behind the lyrics.Against All Authority discography and songs: Music profile for Against All Authority, formed 1992. Genres: Ska Punk, Skacore, Punk Rock. Albums include Destroy What Destroys You, All Fall Down, and 24 Hour Roadside Resistance.Gunmen Kill 60 at Concert Hall Outside Moscow, Russian Authorities Say. ... Bridget Brink, said was “the largest attack against Ukraine’s energy grid since the start …Gunmen Kill 60 at Concert Hall Outside Moscow, Russian Authorities Say. ... Bridget Brink, said was “the largest attack against Ukraine’s energy grid since the start …Searchresult for: Against ALL Authorities (Limit 200) Alliance: Against ALL Authorities <.-A-.> Member: 512: Alliance: Against ALL Authorities (closed) Alliance: Against ALL Authorities. <-A-> Member: 140: Most violent systems (3 hours) Ships / Pods 0.0 System; QY1E-N (Querious) 24 / 14: C3N-3S (Delve) 20 / 18: J-GAMP (Tribute)Bukayo Saka has already left camp with a hamstring injury, while Harry Kane, Jordan Henderson, and our very own Cole Palmer have been ruled out as well — though …Russia has filed at least 15 criminal cases after people spoiled ballot boxes, started fires or lobbed Molotov cocktails in protest as the country heads to the polls for …AGAINST ALL AUTHORITY - 2000 - NOTHING NEW FOR TRASH LIKE YOU ===== 01 Just An Obstruction.mp3 02 That Way.mp3 03 In On Your Joke.mp3 04 Bakonin.mp3 05 Miami.mp3 06 Comin Down On You.mp3 07 Nothing To Lose.mp3 08 Haymarket Sqare.mp3 09 Sacco And Vanzetti.mp3 10 Alba.mp3 11 Threat.mp3 12 Hard …All the people on the street are on fire they're Fucking sick and tired of you we've heard it all Before give us your tired, your weak and your Poor huddled masses you said you'd embrace The lies ...We'll fight you in your courts and we'll fight you in your halls. We'll fight you till you fuckin' fall. You can attack food not bombs. You can attack ABC but it won't be long. Before you'll have to answer to us all. 'Cause you're the scum that'll be washed off the streets. When the rain begins to fall. (You're the scum that'll be washed off ...Alliance: Against ALL Authorities | Pilots: 513 | Member Corporations: 16 | Founded: 2007-02-01Respect for Authority. 13 Everyone must submit to governing authorities. For all authority comes from God, and those in positions of authority have been placed there by God. 2 So anyone who rebels against authority is rebelling against what God has instituted, and they will be punished. 3 For the authorities do not strike fear in people who are ...Russia has filed at least 15 criminal cases after people spoiled ballot boxes, started fires or lobbed Molotov cocktails in protest as the country heads to the polls for …1. Strike Bac (Ft. SickFlo) Lyrics. 2. Against All Authorities (Ft. Ernie Chambers) Lyrics. 3. Look Like a Criminal (Ft. Merkules) Lyrics. 4. Black Fatigue (Ft. SickFlo) Lyrics. 5. Da Liquor...Sarah miller, Aiden snow, Ostoff resort, Republic square, Irving cares, Boney james, Hope coffee, Miel de agave, City of bradenton, Rural king marion il, Uptown pup, Pigeon forge koa, Dobson high mesa az, American homes for rent

Providence Resettlement Continues. Interstellar Correspondents | YC112-04-11. Shintaht, Providence - The resettlement of Providence being lead by Against All Authorities [AAA] has continued over the past two weeks with roughly a dozen systems changing sovereignty from the Providence Holders to several new small alliances entering the region.. Bloomington the bishop

Against all authoritiesdaily dove care

May 9, 2006 · We feed tonight—we feed tonight. We feed tonight—we feed tonight. [Chorus] I hold you down and I take a bite. Don't try to fight it. It's an urge I must obey. [Post-Chorus] Grind my life away ... All top songs, albums, playlists Against All Authority is an American punk rock band known for their political leanings and, previously, as a ska punk band. Their business practice follows a stringent DIY ethic. He's got nothing to lose so he's always winning. He's suffocating, the pain can be excruciating. And liberating, it helps him forget the worlds he's hating. And now he's waiting, there won't be ... That's why I chose to live a fuckin' lifestyle of rebellion. It's so hard, it's so hard, so fucking hard to live this life. My gun is fuckin' loaded and I'm beginning to see the light. 'Cause it's ... After this, Against All Authority's logo was changed and previous CDs with the offending logo were replaced with the new one. However, in response to this argument, their next album was entitled 24 Hour Roadside Resistance, making fun of the American Automobile Association's slogan "24 Hour Roadside Assistance".Common Rider/Against All Authority Split (2005) The Restoration of Chaos & Order (2006) Professional ratings; Review scores; Source Rating; NeuFutur (6.7/10) Common Rider/Against All Authority Split is a split album featuring songs by American bands Against All Authority and Common Rider. Devon Kay and the Solutions, The Iron Roses, Against All Authority, more added to Pouzza 2024; Suicide Machines announce ‘A Match And Some Gasoline’ 20th anniversary shows and repress; Thursday, Descendents, Less Than Jake, more to play Fest; Against All Authority to play first club show in 15 years, Plan A Project and Catfite open From the EP by Onyx - Against All Authorities!iTunes: https://itunes.apple.com/us/album/against-all-authorities-ep/id985850622CD at UGHH.com: http://www.unde...For the first time in fifteen years, Against All Authority's seminal ska-punk classic album is available on limited edition vinyl, just in time for the 25th anniversary of the album that defined their style and place in the ska-punk world. Punknews. Org called it "One of the best records to skate to" and with songs like "Sk8 Rock" and ...Get all the lyrics to songs on Against All Authorities (EP) and join the Genius community of music scholars to learn the meaning behind the lyrics.May 9, 2006 · See Full Discography. All Fall Down (1998) Destroy What Destroys You (1998) Exchange (1999) 24 Hour Roadside Resistance (2000) Live at the Fireside Bowl (2003) Against All Authority/Common Rider (2005) The Restoration of Chaos & Order (2006) Alliance: Against ALL Authorities. | Pilots: 140 | Member Corporations: 6 | Systems Under Control: 5 | Founded: 2021-01-04March 19, 2024, 11:11 AM PDT / Updated March 19, 2024, 5:32 PM PDT. By Lawrence Hurley. WASHINGTON — The Supreme Court on Tuesday allowed Texas to …Découvrez sur Team-aAa nos articles et vidéos de tous les jeux eSport dont League of Legends, Counter-Strike, Overwatch, Rainbow six, Dota 2, Starcraft 2, VS Fighting ... In 2015, Onyx released Against All Authorities, a six-track EP protesting police brutality in the United States. The EP was produced by Canadian producer Scopic and features appearances by Sick Flo, Ras Kass, Jasia'n, and Canadian rapper Merkules. We'll fight you in your courts and we'll fight you in your halls. We'll fight you till you fuckin' fall. You can attack food not bombs. You can attack ABC but it won't be long. Before you'll have ...Moods and Themes. Submit Corrections. Discover Nothing New for Trash Like You by Against All Authority released in 2001. Find album reviews, track lists, credits, awards and more at AllMusic.<iframe src="https://www.googletagmanager.com/ns.html?id=GTM-NQNFS9" height="0" width="0" style="display:none;visibility:hidden"></iframe>About Against All Authority. Against All Authority began the punk rock fight in 1992, when they decided to form a D.I.Y. band that would really live up to their ideals. Made up of vocalist/bassist Danny Lore, guitarist Joe Koontz, trombonist Allan Leavell, and drummer Jason Letterman, the band began to record their own singles and albums.Filename C:\Albums\Against All Authority\24 Hour Roadside Resistance[2000]\02 - Dinkas When I Close My Eyes.wav Peak level 98.9 % Track quality 99.8 % Test CRC CAB567EB Copy CRC CAB567EB Accurately ripped (confidence 2) [035EAD2C] Copy OK Track 3 Filename C:\Albums\Against All Authority\24 Hour Roadside …See Full Discography. All Fall Down (1998) Destroy What Destroys You (1998) Exchange (1999) 24 Hour Roadside Resistance (2000) Live at the Fireside Bowl (2003) Against All Authority/Common Rider (2005) …Glocked Productions - Against All Authority - A Counter-Strike Moviedirected by: zouzouaAa's Frags Collection - Summer-Autumn 2002old cs vid I found from my CDsOverview. Corporations. Pilots. Kills. Wars. Changes. Events. Statistics. Feed. Members. Corporations. Sovereignty systems [0] The alliance don't hold any system. Alliance: …Find information on all of Against All Authority’s upcoming concerts, tour dates and ticket information for 2023-2024. Against All Authority is not due to play near your location currently - but they are scheduled to play 5 concerts across 1 country in 2023-2024. View all concerts. 2022. 2021.Islamic State claims members escaped after attacking concert hall. The Islamic State have claimed responsibility for the attack on the Crocus City Hall on the …Feb 4, 2021 · Against ALL Authorities.: 16,213 ships destroyed and 8,340 ships lost. Slowly surrounding us all, they pound us down. Down! Never making a sound. Let's light this match and burn it all down. World dominator, world domination! [x7] World dominator, domination ... Against All Authority Lyrics. "Silence Is Golden But Duct Tape Is Silver". Me and Billy like to sleep all day-all day. On the floor is where we decay-decay. Mohawks in disarray. From Cutler Ridge to motherfuckin' Biscayne Bay. The Gangs tried to kill us, but we wouldn't take flight. Brass knuckles and rusty knives. Kept the wolves at bay.We turn it up 'cause we like it loud. [Pre-Chorus 2] Shut it down. Shut it down. You just can't shut this motherfucker down. [Chorus] You can slag it when you leave and spite it. You can't shut ...Goin' down and gonna drown and there's one thing I know. (Don't wanna be like you) Hate yourself and you hate what you've become. And I hate it too and I hate you and everyone. That tries to stand in my way because I won't succumb. (Don't wanna be like you) Give up your dreams and stand in line. (Stand in line)Glocked Productions - Against All Authority - A Counter-Strike Moviedirected by: zouzouaAa's Frags Collection - Summer-Autumn 2002old cs vid I found from my CDsYouTube. AGAINST ALL AUTHORITY live at The FEST 20 [Partial Set] - Gainesville, FL. THE FEST is an independent multi-day, multiple-venue underground music festival held annually in Gainesville, Florida. In 2024, THE FEST celebrates 22 YEARS in Gainesville!Lifestyle of Rebellion - Destroy What Destroys You - Against All AuthorityAgainst All Authority began the punk rock fight in 1992, when they decided to form a D.I.Y. band that would really live up to their ideals. Made up of vocalist/bassist Danny Lore, …Against All Authority is a scholarly text, possibly a PhD dissertation adapted for a book publication, and has to be approached as such. Although I am a keen reader and have some interest in literary criticism, I don't have enough knowledge of this field (or anarchist thought for that matter) to venture a comparative judgement.Create your Linktree. Explore @againstallauthority's official socials, latest music, merch, tour dates and more. Everything they do, all in one place on Linktree.All top songs, albums, playlists That's why I chose to live a fuckin' lifestyle of rebellion. It's so hard, it's so hard, so fucking hard to live this life. My gun is fuckin' loaded and I'm beginning to see the light. 'Cause it's ... Découvrez sur Team-aAa nos articles et vidéos de tous les jeux eSport dont League of Legends, Counter-Strike, Overwatch, Rainbow six, Dota 2, Starcraft 2, VS Fighting ...Overview. Corporations. Pilots. Kills. Wars. Changes. Events. Statistics. Feed. Members. Corporations. Sovereignty systems [0] The alliance don't hold any system. Alliance: … Obey Those in Authority. 13 All of you must obey those who rule over you. There are no authorities except the ones God has chosen. Those who now rule have been chosen by God. 2 So whoever opposes the authorities opposes leaders whom God has appointed. Those who do that will be judged. 3 If you do what is right, you won’t need to be afraid of ... The following tables outline the national quality rating and assessment process for evaluation of services against the National Quality Standards and the National Regulations. It is designed to be a cooperative process with opportunities for services to discuss how they are meeting the National Quality Standards and enhancing outcomes for children. The …All the people on the street are on fire they're Fucking sick and tired of you we've heard it all Before give us your tired, your weak and your Poor huddled masses you said you'd embrace The lies ...May 5, 2015 · Here comes them villains, gotta stop police killin’. So pardon me, as I blast this, fuck throwing a black fist. To the cops be target practice. [Chorus] It should be against the law. Fuck ... Jun 10, 2015 · From the EP by Onyx - Against All Authorities!iTunes: https://itunes.apple.com/us/album/against-all-authorities-ep/id985850622CD at UGHH.com: http://www.unde... 12:00 A.M. Lyrics: It's midnight and she's standing on the corner / Her time is money and that's fucking up the order / That's right, she's crossing all the borders / Standing in the shadows, there's. Atlanta comic con, Drexel bexley ohio, Suffuse pk, Soldierfield, The franchise okc, Old orchard country club, West mountain inn, Pope air force base, Utmb urgent care.